peliculasgratis.biz | Regreso Al Futuro II BLuRayRip | Download

Pretty Little Liars S07E05 HDTV x264-LOL[rartv]

seeders: 4
leechers: 2
Added on July 20, 2016 by z0n321in TV
Torrent verified.


Available in versions: 1080p720p480px264

Pretty Little Liars S07E05 HDTV x264-LOL[rartv] (Size: 206.8 MB)
 rarbg.com.txt34 bytes
 pretty.little.liars.705.hdtv-lol.mkv206.8 MB
 pretty.little.liars.705.hdtv-lol.nfo4.26 KB

Description

http://rarbg.to

Pretty.Little.Liars.S07E05.HDTV.x264-LOL[rartv]



image

Screens :



image

Mediainfo :



Video

ID : 1

Format : AVC

Format/Info : Advanced Video Codec

Format profile : [email protected]

Format settings, CABAC : Yes

Format settings, ReFrames : 5 frames

Codec ID : V_MPEG4/ISO/AVC

Duration : 42mn 52s

Bit rate : 549 Kbps

Width : 720 pixels

Height : 400 pixels

Display aspect ratio : 16:9

Frame rate mode : Constant

Frame rate : 23.976 (24000/1001) fps

Color space : YUV

Chroma subsampling : 4:2:0

Bit depth : 8 bits

Scan type : Progressive

Bits/(Pixel*Frame) : 0.080

Stream size : 168 MiB (81%)

Writing library : x264 core 148 r2705 3f5ed56

Encoding settings : cabac=1 / ref=5 / deblock=1:1:1 / analyse=0x3:0x133 / me=umh / subme=9 / psy=1 / psy_rd=1.00:0.00 / mixed_ref=1 / me_range=16 / chroma_me=1 / trellis=2 / 8x8dct=1 / cqm=0 / deadzone=21,11 / fast_pskip=1 / chroma_qp_offset=-2 / threads=12 / lookahead_threads=1 / sliced_threads=0 / nr=0 / decimate=1 / interlaced=0 / bluray_compat=0 / constrained_intra=0 / bframes=3 / b_pyramid=2 / b_adapt=2 / b_bias=0 / direct=3 / weightb=1 / open_gop=0 / weightp=2 / keyint=250 / keyint_min=23 / scenecut=40 / intra_refresh=0 / rc_lookahead=60 / rc=crf / mbtree=1 / crf=20.0 / qcomp=0.60 / qpmin=0 / qpmax=69 / qpstep=4 / ip_ratio=1.40 / aq=1:1.00

Language : English

Default : Yes

Forced : No

Color range : Limited

Matrix coefficients : BT.709



Audio

ID : 2

Format : AAC

Format/Info : Advanced Audio Codec

Format profile : LC

Codec ID : A_AAC

Duration : 42mn 51s

Bit rate : 123 Kbps

Channel(s) : 2 channels

Channel positions : Front: L R

Sampling rate : 48.0 KHz

Frame rate : 46.875 fps (1024 spf)

Compression mode : Lossy

Delay relative to video : 9ms

Stream size : 37.7 MiB (18%)

Default : Yes

Forced : No

Related Torrents

torrent name size seed leech

Sharing Widget


Download torrent
206.8 MB
seeders:4
leechers:2
Pretty Little Liars S07E05 HDTV x264-LOL[rartv]

All Comments

Thank you!
Thank you z0n321!